+ Reply to Thread
Results 1 to 2 of 2
  1. #1
    Administrators Duckload.us's Avatar
    Join Date
    Dec 2010
    Posts
    98,565
    Thanks
    9
    Thanked 100,009 Times in 47,960 Posts

    Question [ฝรั่ง]-[**4K Ultra HD 2160P**] • [Netflix] • THE NEW LEGENDS OF MONKEY SEASON 1 (2018) ตำนานราชาวานร ซีซัน 1 [2160p Netflix WEBRip DD5.1 x264] • [พากย์ไทย Master 5.1+เสียงอังกฤษ 5.1] • [บรรยายไทย + อังกฤษ + ซับไทย Master From Netflix คมชัด ]





    THE NEW LEGENDS OF MONKEY SEASON 1 (2018) ตำนานราชาวานร ซีซัน 1 จากทาง Netflix


    แสดงนำโดย: ชัย แฮนเซน, ลูเชียน บูแคนัน, จอช ธอมสัน

    2160p Netflix WEBRip DD5.1 x264

    ตอน ตำนานราชาวานร

    ปีเปิดตัว: 2018

    เด็กสาวผู้กล้าหาญได้ปลดปล่อยเทพหงอคงที่ติดอยู่ในหิ นมาเป็นเวลายาวนานให้เป็นอิสระ
    เพื่อร่วมกันตามหาคัมภีร์ศักดิ์สิทธิ์และปกป้องโลกนี ้จากปีศาจร้าย

    1. ความหวังไม่เคยตาย 26 นาที
    หลังจากปีศาจขโมยรัดเกล้าวิเศษไปจากเหล่าภิกษุนักรบ เด็กสาวกำพร้าคนหนึ่งได้หนีออกมาจากวัดเพื่อปลุกหงอค งผู้ถูกจองจำไว้ในหินมานานแสนนานให้เป็นอิสระ

    2. แดนลับแล 24 นาที
    พระถังซัมจั๋งได้รู้เรื่องราวเกี่ยวกับตำนานความหลัง ที่เต็มไปด้วยปัญหาของหงอคง หลังจากนั้นทั้งคู่ก็ได้พันธมิตรใหม่ที่จะร่วมเดินทา งเพื่อตามหาคัมภีร์ศักดิ์สิทธิ์ด้วยกัน

    3. การเดินทางเริ่มต้น 24 นาที
    ปีศาจตนหนึ่งเข้ามาขัดขวางการเดินทางของทั้งสามตั้งแ ต่ยังไม่ทันได้เริ่มต้น พระถังซัมจั๋งค้นพบเรื่องราวอันน่าตกตะลึงเกี่ยวกับโ ป๊ยก่ายซึ่งกำลังตัดสินใจทำการสำคัญบางอย่าง

    4. การกลับมาของหงอคง 26 นาที
    เผ่าพันธุ์ลิงสุดประหลาดที่เทิดทูนบูชาหงอคงได้นำทาง สมาชิกทั้งกลุ่มไปยังที่ซ่อนของคัมภีร์ศักดิ์สิทธิ์ แต่ทว่ากับดักและการทรยศต่างรอคอยพวกเขาอยู่

    5. รอยแตก 26 นาที
    ชาแมนใช้เกมจิตวิทยาที่ทำให้ทุกคนเหมือนตกอยู่ในภวัง ค์ในการหลอกล่อเหล่าเทพให้แปลคัมภีร์ศักดิ์สิทธิ์ และทำให้หงอคงต้องดำดิ่งลึกลงไปในจิตใต้สำนึกของตนเอ ง

    6. รัดเกล้าไม่ได้ทำให้เจ้าเป็นราชา 26 นาที
    หงอคงติดกับดักในส่วนลึกของจิตใจตนเอง ซึ่งทำให้เขาหวนคิดถึงเหตุการณ์เลวร้ายที่เกิดขึ้นหล ายศตวรรษก่อน เมื่อครั้งที่ความหยิ่งยโสทำให้เขาต้องพบกับโศกนาฏกร รมและการถูกเนรเทศ

    7. จนได้เจอเจ้า 26 นาที
    ชาแมนได้ว่าจ้างปีศาจน่ากลัวที่อยู่ในป่าให้ออกตามล่ าหาพวกหงอคง ขณะเดียวกันศัตรูในอดีตของหงอคงได้หาทางทำให้พระถังซ ัมจั๋งเกิดความเคลือบแคลงสงสัยขึ้นในใจ

    8. ส่วนหนึ่งของเธอที่หายไป 26 นาที
    พระถังซัมจั๋งหยุดทำภารกิจเพื่อตามหาแม่แต่ทว่าเธอกล ับต้องเผชิญหน้ากับอันตรายร้ายแรงยิ่งกว่า ขณะเดียวกันหงอคงกับโป๊ยก่ายพยายามต่อรองกับปีศาจที่ ตามไล่ล่าพวกเขา

    9. ตามหาพระถังซัมจั๋ง 26 นาที
    ด้วยความช่วยเหลือจากพันธมิตรที่ไม่น่าเป็นไปได้ ทำให้หงอคงและโป๊ยก่ายสามารถเดินทางเข้าไปในภูผาหยกเ พื่อช่วยพระถังซัมจั๋งขัดขวางแผนการโหดเหี้ยมของปรมา จารย์ปีศาจดาวารี

    10. ฮีโร่มาเพื่อช่วยชีวิตเราทุกคน 26 นาที
    ขณะที่เป้าหมายในการมีชีวิตเป็นอมตะของดาวารีใกล้จะส ำเร็จ พระถังซัมจั๋งเร่งหาทางเปิดผนึกความลับที่อาจสามารถใ ช้ทำลายพลังของปีศาจร้ายตนนี้ได้


    ตัวอย่าง ตอน...ความหวังไม่เคยตาย 26 นาที



    Format : Matroska
    Format version : Version 2
    File size : 7.97 GiB
    Duration : 26 min 28 s
    Overall bit rate : 43.1 Mb/s
    Movie name : The New Legends of Monkey S01E01 Hope Must Never Die 2160p Netflix WEBRip DD5.1 [email protected]
    Encoded date : UTC 2018-06-04 18:06:52

    Video
    ID : 1
    Format : AVC
    Format/Info : Advanced Video Codec
    Format profile : [email protected]
    Format settings : CABAC / 5 Ref Frames
    Format settings, CABAC : Yes
    Format settings, RefFrames : 5 frames
    Muxing mode : Header stripping
    Codec ID : V_MPEG4/ISO/AVC
    Duration : 26 min 28 s
    Bit rate : 41.7 Mb/s
    Width : 3 840 pixels
    Height : 2 160 pixels
    Display aspect ratio : 16:9
    Frame rate mode : Constant
    Frame rate : 25.000 FPS
    Color space : YUV
    Chroma subsampling : 4:2:0
    Bit depth : 8 bits
    Scan type : Progressive
    Bits/(Pixel*Frame) : 0.201
    Stream size : 7.70 GiB (97%)
    Title : The New Legends of Monkey S01E01 Hope Must Never Die 2160p Netflix WEBRip DD5.1 [email protected]
    Writing library : x264 core 155 r2901 7d0ff22
    Encoding settings : cabac=1 / ref=5 / deblock=1:-3:-3 / analyse=0x3:0x133 / me=umh / subme=10 / psy=1 / psy_rd=1.00:0.00 / mixed_ref=1 / me_range=48 / chroma_me=1 / trellis=2 / 8x8dct=1 / cqm=0 / deadzone=21,11 / fast_pskip=1 / chroma_qp_offset=-2 / threads=42 / lookahead_threads=7 / sliced_threads=0 / nr=0 / decimate=0 / interlaced=0 / bluray_compat=0 / constrained_intra=0 / bframes=8 / b_pyramid=2 / b_adapt=2 / b_bias=0 / direct=3 / weightb=1 / open_gop=0 / weightp=2 / keyint=250 / keyint_min=25 / scenecut=40 / intra_refresh=0 / rc=crf / mbtree=0 / crf=18.0 / qcomp=0.70 / qpmin=0 / qpmax=69 / qpstep=4 / ip_ratio=1.40 / pb_ratio=1.30 / aq=3:0.70
    Language : English
    Default : Yes
    Forced : No

    Audio #1
    ID : 2
    Format : AC-3
    Format/Info : Audio Coding 3
    Muxing mode : Header stripping
    Codec ID : A_AC3
    Duration : 26 min 28 s
    Bit rate mode : Constant
    Bit rate : 384 kb/s
    Channel(s) : 6 channels
    Channel positions : Front: L C R, Side: L R, LFE
    Sampling rate : 48.0 kHz
    Frame rate : 31.250 FPS (1536 SPF)
    Bit depth : 16 bits
    Compression mode : Lossy
    Stream size : 72.7 MiB (1%)
    Title : English 5.1
    Language : English
    Service kind : Complete Main
    Default : Yes
    Forced : No

    Audio #2
    ID : 5
    Format : E-AC-3
    Format/Info : Enhanced Audio Coding 3
    Muxing mode : Header stripping
    Codec ID : A_EAC3
    Duration : 26 min 28 s
    Bit rate mode : Constant
    Bit rate : 192 kb/s
    Channel(s) : 6 channels
    Channel positions : Front: L C R, Side: L R, LFE
    Sampling rate : 48.0 kHz
    Frame rate : 187.500 FPS (256 SPF)
    Compression mode : Lossy
    Stream size : 36.4 MiB (0%)
    Title : Thai 5.1
    Language : Thai
    Service kind : Complete Main
    Default : No
    Forced : No

    Text #1
    ID : 3
    Format : UTF-8
    Codec ID : S_TEXT/UTF8
    Codec ID/Info : UTF-8 Plain Text
    Title : English SDH
    Language : English
    Default : No
    Forced : No

    Text #2
    ID : 4
    Format : UTF-8
    Codec ID : S_TEXT/UTF8
    Codec ID/Info : UTF-8 Plain Text
    Title : Thai
    Language : Thai
    Default : No
    Forced : No










































    The New Legends of Monkey S01E01 Hope Must Never Die 2160p Netflix WEBRip DD5.1 [email protected] - 8.0 GB
    The New Legends of Monkey S01E02 The Edge Of Nowhere 2160p Netflix WEBRip DD5.1 [email protected] - 6.4 GB
    The New Legends of Monkey S01E03 The Journey Begins 2160p Netflix WEBRip DD5.1 [email protected] - 6.4 GB
    The New Legends of Monkey S01E04 The Monkey King Returns 2160p Netflix WEBRip DD5.1 [email protected] - 6.8 GB
    The New Legends of Monkey S01E05 The Breaking Ground 2160p Netflix WEBRip DD5.1 [email protected] - 7.0 GB
    The New Legends of Monkey S01E06 A Crown Does Not Make You 2160p Netflix WEBRip DD5.1 [email protected] - 6.5 GB
    The New Legends of Monkey S01E07 Until I Met You 2160p Netflix WEBRip DD5.1 [email protected] - 6.1 GB
    The New Legends of Monkey S01E08 A Part Of You That's Missing 2160p Netflix WEBRip DD5.1 [email protected] - 5.2 GB
    The New Legends of Monkey S01E09 In Search of Tripitaka 2160p Netflix WEBRip DD5.1 [email protected] - 6.8 GB
    The New Legends of Monkey S01E10 A Hero To Save Us All 2160p Netflix WEBRip DD5.1 [email protected] - 8.1 GB


    1
    http://www.mekafile.com/dl.php?f=K1ac02bG4qzX
    2
    http://www.mekafile.com/dl.php?f=td7c24bG4q1K
    3
    http://www.mekafile.com/dl.php?f=ph1ecebG4qrW
    4
    http://www.mekafile.com/dl.php?f=VXdac2bG4p8Z
    5
    http://www.mekafile.com/dl.php?f=IZd81cbG4psR
    6
    http://www.mekafile.com/dl.php?f=ec9a35bG4q7Q
    7
    http://www.mekafile.com/dl.php?f=bJ06ebbG4plD
    8
    http://www.mekafile.com/dl.php?f=jZ8e9bbG4qEH
    9
    http://www.mekafile.com/dl.php?f=7q01d9bG4pNp
    10
    http://www.mekafile.com/dl.php?f=el184ebG4qPE

  2. #2
    Senior Member
    Join Date
    Dec 2011
    Posts
    2,037
    Thanks
    0
    Thanked 0 Times in 0 Posts
    ขอบคุณค่าาา หนังชัดมาก

+ Reply to Thread

Thread Information

Users Browsing this Thread

There are currently 1 users browsing this thread. (0 members and 1 guests)

     

Posting Permissions

  • You may not post new threads
  • You may not post replies
  • You may not post attachments
  • You may not edit your posts