+ Reply to Thread
Results 1 to 4 of 4
  1. #1
    Administrators Duckload.us's Avatar
    Join Date
    Dec 2010
    Posts
    98,596
    Thanks
    9
    Thanked 100,032 Times in 47,974 Posts

    Question [ฝรั่ง]-[Mini-HD]-[Unrated Cut ไม่มีตัด] Milf : Unrated Director s Cut (2010) หนุ่มกระเตาะ เต๊าะรักรุ่นเดอะ [Master] [1080p HQ.] [เสียงไทยมาสเตอร์ 5.1 + ENG 5.1 ] [บรรยายไทย + อังกฤษ] [เสียง + ซับ From MASTER : + ซับไทย PGS คมชัดถึงใจ] [.MKV]



    แบรนดอน [Jack Cullison] , แอนโทนี่ [Philip Marlatt] , เนท [Joseph Booton] และ รอส [Ramon Camacho] 4 หนุ่มนักศึกษาเพื่อนซี้ที่มักประสบความล้มเหลวในการจ ีบสาวสวยที่อยู่ในรุ่นเดียวกัน ทำให้พวกเค้าวางแผนการในการหาทางออกใหม่ในการเบนเข็ม ไปจีบสาวใหญ่ที่อายุมากกว่าพวกเค้าหลายปีเพราะคิดว่า สาวใหญ่พวกนี้จะจีบได้ง่ายกว่าสาววัยรุ่นเดียวกัน แต่พวกเค้าอาจคิดผิดเพราะว่าสาวใหญ่สูงวัยพวกนี้ล้วน แล้วแต่เป็นพวกมากประสบการณ์และเป็นพวกไก่แก่แม่ปลาช ่อนทั้งนั้น !!!

    General
    Unique ID : 230718204984332403481618713431895806260 (0xAD92B5C08EFB14938B5476011AAD9134)
    Complete name : J:Milf [2010] Unrated หนุ่มกระเตาะ เต๊าะรักรุ่นเดอะMilf [2010] Unrated. BDRip.H.264.1080p. By Pond.mkv
    Format : Matroska
    Format version : Version 4 / Version 2
    File size : 3.07 GiB
    Duration : 1 h 28 min
    Overall bit rate : 4 973 kb/s
    Encoded date : UTC 2010-02-22 21:41:31
    Writing application : mkvmerge v5.9.0 ( On The Loose ) built on Dec 9 2012 15:37:01
    Writing library : libebml v1.3.0 + libmatroska v1.4.0

    Video
    ID : 1
    Format : AVC
    Format/Info : Advanced Video Codec
    Format profile : [email protected]
    Format settings, CABAC : Yes
    Format settings, RefFrames : 4 frames
    Muxing mode : Header stripping
    Codec ID : V_MPEG4/ISO/AVC
    Duration : 1 h 28 min
    Bit rate : 4 106 kb/s
    Nominal bit rate : 4 325 kb/s
    Width : 1 920 pixels
    Height : 1 080 pixels
    Display aspect ratio : 16:9
    Frame rate mode : Constant
    Frame rate : 23.976 (24000/1001) FPS
    Color space : YUV
    Chroma subsampling : 4:2:0
    Bit depth : 8 bits
    Scan type : Progressive
    Bits/(Pixel*Frame) : 0.083
    Stream size : 2.54 GiB (83%)
    Title : Milf [2010] Unrated. BDRip.H.264.1080p. By Pond
    Writing library : x264 core 130 r2273 b3065e6
    Encoding settings : cabac=1 / ref=4 / deblock=1:0:0 / analyse=0x3:0x133 / me=umh / subme=7 / psy=1 / psy_rd=1.00:0.00 / mixed_ref=1 / me_range=24 / chroma_me=1 / trellis=1 / 8x8dct=1 / cqm=0 / deadzone=21,11 / fast_pskip=1 / chroma_qp_offset=-2 / threads=6 / lookahead_threads=1 / sliced_threads=0 / nr=0 / decimate=1 / interlaced=0 / bluray_compat=0 / constrained_intra=0 / bframes=4 / b_pyramid=2 / b_adapt=2 / b_bias=0 / direct=1 / weightb=1 / open_gop=0 / weightp=2 / keyint=240 / keyint_min=24 / scenecut=40 / intra_refresh=0 / rc_lookahead=40 / rc=abr / mbtree=1 / bitrate=4325 / ratetol=1.0 / qcomp=0.60 / qpmin=0 / qpmax=69 / qpstep=4 / ip_ratio=1.40 / aq=1:1.00
    Language : English
    Default : Yes
    Forced : No
    Color range : Limited
    Color primaries : BT.709
    Transfer characteristics : BT.709
    Matrix coefficients : BT.709

    Audio #1
    ID : 2
    Format : AC-3
    Format/Info : Audio Coding 3
    Format settings, Endianness : Big
    Muxing mode : Header stripping
    Codec ID : A_AC3
    Duration : 1 h 28 min
    Bit rate mode : Constant
    Bit rate : 384 kb/s
    Channel(s) : 6 channels
    Channel positions : Front: L C R, Side: L R, LFE
    Sampling rate : 48.0 kHz
    Frame rate : 31.250 FPS (1536 SPF)
    Bit depth : 16 bits
    Compression mode : Lossy
    Stream size : 243 MiB (8%)
    Title : English AC.3 From DVD Master.
    Language : English
    Service kind : Complete Main
    Default : Yes
    Forced : No

    Audio #2
    ID : 3
    Format : AC-3
    Format/Info : Audio Coding 3
    Format settings, Endianness : Big
    Muxing mode : Header stripping
    Codec ID : A_AC3
    Duration : 1 h 28 min
    Bit rate mode : Constant
    Bit rate : 384 kb/s
    Channel(s) : 5 channels
    Channel positions : Front: L C R, Side: L R
    Sampling rate : 48.0 kHz
    Frame rate : 31.250 FPS (1536 SPF)
    Bit depth : 16 bits
    Compression mode : Lossy
    Stream size : 243 MiB (8%)
    Title : Thai AC.3 From DVD Master.
    Language : Thai
    Service kind : Complete Main
    Default : No
    Forced : No

    Text #1
    ID : 4
    Format : VobSub
    Muxing mode : zlib
    Codec ID : S_VOBSUB
    Codec ID/Info : Picture based subtitle format used on DVDs
    Title : Thai 480p.
    Language : Thai
    Default : Yes
    Forced : No

    Text #2
    ID : 5
    Format : VobSub
    Muxing mode : zlib
    Codec ID : S_VOBSUB
    Codec ID/Info : Picture based subtitle format used on DVDs
    Title : English 480p.
    Language : English
    Default : No
    Forced : No

    Text #3
    ID : 6
    Format : UTF-8
    Codec ID : S_TEXT/UTF8
    Codec ID/Info : UTF-8 Plain Text
    Title : English SRT.
    Language : English
    Default : No
    Forced : No

















    Download: cornfile
    http://cornfile.com/p2hxpvet9vb5
    Download: mekafile
    http://www.mekafile.com/dl.php?f=cPa866bOUKgA

  2. The Following 5 Users Say Thank You to Duckload.us For This Useful Post:

    apichartdear (01-11-2019), Jodz14 (01-13-2019), mta28 (01-10-2019), sawara (01-11-2019), Sherlock (01-13-2019)

  3. #2
    Senior Member
    Join Date
    Oct 2013
    Posts
    1,409
    Thanks
    0
    Thanked 0 Times in 0 Posts
    ขอบคุณครับ

  4. #3
    Senior Member
    Join Date
    Dec 2013
    Posts
    134
    Thanks
    74
    Thanked 0 Times in 0 Posts
    ขอบคุณครับ

  5. #4
    Senior Member
    Join Date
    Jun 2014
    Posts
    400
    Thanks
    0
    Thanked 0 Times in 0 Posts
    ขอบคุณครับ

+ Reply to Thread

Thread Information

Users Browsing this Thread

There are currently 1 users browsing this thread. (0 members and 1 guests)

     

Posting Permissions

  • You may not post new threads
  • You may not post replies
  • You may not post attachments
  • You may not edit your posts