+ Reply to Thread
Results 1 to 2 of 2
  1. #1
    Administrators Duckload.us's Avatar
    Join Date
    Dec 2010
    Posts
    98,596
    Thanks
    9
    Thanked 100,031 Times in 47,973 Posts

    Question [ฝรั่ง]-First Man (2018) มนุษย์คนแรกบนดวงจันทร์ -1080p [พากย์ไทยโรง+อังกฤษ] [บรรยายอังกฤษ]




    First Man



    Rating: 7.5/10 Year: 2018 Genres: Biography / Drama / History Runtime: 141 min Language: English Director: Damien Chazelle Writers: Josh Singer / James R. Hansen Cast: Ryan Gosling / Claire Foy / Jason Clarkeโ€ฆ Plot:

    A Biopic on the life of the legendary American Astronaut Neil Armstrong from 1961-1969, on his journey to becoming the first human to walk the moon. Exploring the sacrifices and costs on the Nation and Neil himself, during one of the most dangerous missions in the history of space travel. Written by Matthew Villella

    เดเมี่ยน ชาเซลล์ ผู้กำกับที่สามารถคว้าออสการ์ 6 รางวัลมาครอง จากภาพยนตร์ La La Land และ ไรอัน กอสลิง กลับมาร่วมงานกันอีกครั้ง ใน First Man ภาพยนตร์เล่าเรื่องราวภารกิจของนาซ่าในการส่งมนุษย์ไ ปดวงจันทร์ โดยเน้นเล่าเรื่องนีล อาร์มสตรอง ในช่วงระหว่างปี 1961-1969 เรื่องราวของมนุษย์คนแรกที่เดินทางไปถึงดวงจันทร์สร้ างจากหนังสือของเจมส์ อาร์. แฮนเซน โดยภาพยนตร์จะเผยเรื่องราวการเสียสละและความสำคัญที่ มีต่ออาร์มสตรองและต่อชาติ






    Duration : 2 h 20 min
    Overall bit rate : 3 177 kb/s
    Encoded date : UTC 2019-01-12 10:58:01
    Writing application : mkvmerge v30.1.0 ( Forever And More ) 64-bit
    Writing library : libebml v1.3.6 + libmatroska v1.4.9
    Cover : Yes
    Attachments : cover

    Video
    ID : 1
    Format : AVC
    Format/Info : Advanced Video Codec
    Format profile : [email protected]
    Format settings : CABAC / 4 Ref Frames
    Format settings, CABAC : Yes
    Format settings, RefFrames : 4 frames
    Codec ID : V_MPEG4/ISO/AVC
    Duration : 2 h 20 min
    Bit rate : 2 500 kb/s
    Width : 1 920 pixels
    Height : 808 pixels
    Display aspect ratio : 2.40:1
    Frame rate mode : Constant
    Frame rate : 23.976 (23976/1000) FPS
    Color space : YUV
    Chroma subsampling : 4:2:0
    Bit depth : 8 bits
    Scan type : Progressive
    Bits/(Pixel*Frame) : 0.067
    Stream size : 2.46 GiB (79%)
    Writing library : x264 core 152 r2851M ba24899
    Encoding settings : cabac=1 / ref=4 / deblock=1:-1:-1 / analyse=0x3:0x113 / me=umh / subme=9 / psy=1 / psy_rd=1.00:0.15 / mixed_ref=1 / me_range=24 / chroma_me=1 / trellis=2 / 8x8dct=1 / cqm=0 / deadzone=21,11 / fast_pskip=1 / chroma_qp_offset=-3 / threads=32 / lookahead_threads=4 / sliced_threads=0 / nr=0 / decimate=1 / interlaced=0 / bluray_compat=0 / constrained_intra=0 / bframes=3 / b_pyramid=2 / b_adapt=2 / b_bias=0 / direct=3 / weightb=1 / open_gop=0 / weightp=2 / keyint=250 / keyint_min=25 / scenecut=40 / intra_refresh=0 / rc_lookahead=50 / rc=2pass / mbtree=1 / bitrate=2500 / ratetol=1.0 / qcomp=0.60 / qpmin=0 / qpmax=69 / qpstep=4 / cplxblur=20.0 / qblur=0.5 / vbv_maxrate=31250 / vbv_bufsize=31250 / nal_hrd=none / filler=0 / ip_ratio=1.40 / aq=3:1.00
    Default : Yes
    Forced : No

    Audio #1
    ID : 2
    Format : AAC LC
    Format/Info : Advanced Audio Codec Low Complexity
    Codec ID : A_AAC-2
    Duration : 2 h 20 min
    Bit rate : 224 kb/s
    Channel(s) : 6 channels
    Channel layout : C L R Ls Rs LFE
    Sampling rate : 48.0 kHz
    Frame rate : 46.875 FPS (1024 SPF)
    Compression mode : Lossy
    Delay relative to video : -43 ms
    Stream size : 226 MiB (7%)
    Language : English
    Default : No
    Forced : No

    Audio #2
    ID : 3
    Format : AC-3
    Format/Info : Audio Coding 3
    Commercial name : Dolby Digital
    Codec ID : A_AC3
    Duration : 2 h 20 min
    Bit rate mode : Constant
    Bit rate : 448 kb/s
    Channel(s) : 6 channels
    Channel layout : L R C LFE Ls Rs
    Sampling rate : 48.0 kHz
    Frame rate : 31.250 FPS (1536 SPF)
    Bit depth : 16 bits
    Compression mode : Lossy
    Delay relative to video : -31 ms
    Stream size : 451 MiB (14%)
    Language : Thai
    Service kind : Complete Main
    Default : Yes
    Forced : Yes

    Text #1
    ID : 4
    Format : UTF-8
    Codec ID : S_TEXT/UTF8
    Codec ID/Info : UTF-8 Plain Text
    Duration : 2 h 10 min
    Bit rate : 48 b/s
    Count of elements : 1376
    Stream size : 46.9 KiB (0%)
    Language : English
    Default : No
    Forced : No

    Text #2
    ID : 5
    Format : UTF-8
    Codec ID : S_TEXT/UTF8
    Codec ID/Info : UTF-8 Plain Text
    Duration : 2 h 12 min
    Bit rate : 55 b/s
    Count of elements : 1596
    Stream size : 53.9 KiB (0%)
    Language : English
    Default : No
    Forced : No

    Text #3
    ID : 6
    Format : VobSub
    Muxing mode : zlib
    Codec ID : S_VOBSUB
    Codec ID/Info : Picture based subtitle format used on DVDs
    Duration : 2 h 12 min
    Bit rate : 10.0 kb/s
    Count of elements : 1596
    Stream size : 9.49 MiB (0%)
    Language : English
    Default : Yes
    Forced : Yes





    Download: cornfile
    http://cornfile.com/f0i52nli22to
    Download: mekafile
    http://www.mekafile.com/dl.php?f=GX888dbP1XGN

  2. The Following User Says Thank You to Duckload.us For This Useful Post:

    smakha (01-14-2019)

  3. #2
    Senior Member
    Join Date
    Jun 2014
    Posts
    400
    Thanks
    0
    Thanked 0 Times in 0 Posts
    ขอบคุณครับ

+ Reply to Thread

Thread Information

Users Browsing this Thread

There are currently 1 users browsing this thread. (0 members and 1 guests)

     

Posting Permissions

  • You may not post new threads
  • You may not post replies
  • You may not post attachments
  • You may not edit your posts